#TITLE:I Got A Boy;
#SUBTITLE:Expi3nze;
#ARTIST:SNSD;
#TITLETRANSLIT:;
#SUBTITLETRANSLIT:;
#ARTISTTRANSLIT:;
#CREDIT:;
#BANNER:bn.png;
#BACKGROUND:bg.png;
#LYRICSPATH:;
#CDTITLE:cdtitle.png;
#MUSIC:IGAB.mp3;
#OFFSET:-0.100;
#SAMPLESTART:100.000;
#SAMPLELENGTH:12.000;
#SELECTABLE:YES;
#BPMS:0.000=140.000,47.000=70.000,47.333=280.000,48.000=140.000,63.000=70.000,63.333=280.000,64.000=140.000,79.000=105.000,127.000=140.000,187.000=70.000,187.333=280.000,188.000=70.000,188.333=280.000,189.000=70.000,189.333=280.000,190.000=140.000;
#STOPS:78.000=0.160
;
#BGCHANGES:;
// cache tags:
#FIRSTBEAT:0.000;
#LASTBEAT:258.500;
#SONGFILENAME:Songs/Expi3nze 4th Collection/I Got A Boy (SNSD)/IGAB.sm;
#HASMUSIC:1;
#HASBANNER:1;
#MUSICLENGTH:118.755;
// end cache tags

//---------------dance-single - ----------------
#NOTES:
     dance-single:
     :
     Hard:
     15:
     1.000,1.000,1.000,0.589,0.286,495.000,278.000,70.000,0.000,69.000:
1010
0000
1000
1000
0010
0000
0101
0000
1000
0000
0001
0001
2201
0000
0000
0000
,
3311
0000
1000
0100
0001
0000
1001
0000
2000
0000
0000
0000
3011
0010
0010
0000
,
0011
0000
1000
0100
1000
0000
0011
0000
0100
0000
1000
0010
2002
0000
0000
0000
,
3113
0000
0100
0100
0001
0000
0101
0000
0202
0000
0000
0000
1313
1000
1000
0000
,
1001
0010
1100
1001
0010
1100
1001
0001
,
1001
0001
1100
1100
0001
0101
1001
0100
,
0011
0001
1100
1100
1001
0010
1001
0110
,
0110
1001
1100
1001
0100
0011
0110
1000
,
0011
1000
0011
1010
1000
0011
0011
1000
,
1001
0010
1100
1001
0010
1010
1010
1000
,
0011
1000
0011
0011
1001
0010
1001
1100
,
1001
0011
0110
1100
0000
0000
0101
0000
,
2010
0000
0010
0010
0100
0000
0011
0000
0010
0000
0010
0000
3202
0000
0010
0000
,
1323
0000
1000
1000
0100
0000
1001
0000
0001
0000
1000
0000
1232
0000
0000
0000
,
1313
0000
0010
0100
1000
0000
1001
0000
1010
0000
0001
0000
2200
0000
0000
0000
,
3311
0000
1000
0010
0100
0000
1001
0000
0100
0000
0010
0000
2001
0000
0000
0000
,
3012
0000
0010
0010
1000
0000
0110
0000
0113
0000
0101
0000
2201
0000
0010
0000
,
3321
0000
0001
0001
0001
0000
1100
0000
2032
0000
0100
0000
3113
0010
0100
0010
,
1001
0000
1000
1000
0010
0000
0101
0000
0101
0000
0001
0000
0221
0000
0000
0000
,
1331
0000
1000
1000
0000
0000
0000
0000
0000
0000
0000
0000
0110
0000
0000
0000
,
0000
1010
0000
0000
0000
1010
0000
1000
1000
0000
0000
0110
0000
0110
0000
0000
,
0000
0000
0011
0000
0000
0000
1010
0000
1000
0000
0010
0000
1010
0000
0000
2020
,
0000
0000
0000
3230
0000
0000
0000
0301
0000
0010
0001
0100
0000
0000
0011
0000
,
0011
0000
0000
0000
1010
0000
0000
0000
1010
0000
1000
1000
0010
0000
0010
0000
,
0000
0220
0000
0000
0000
1331
0000
0000
0000
1001
0000
0000
0001
0001
0000
0000
,
1100
0000
0000
0000
0000
0000
0000
0000
2200
0000
0000
0000
0000
0000
0000
0000
0000
0000
0000
0000
0000
0000
0000
0000
3322
0000
0000
0000
0000
0000
0000
0000
0000
0000
0000
0000
1000
0000
0000
0033
2200
0000
0000
0000
0000
0000
0000
0000
0010
0000
0000
0000
0010
0000
0000
0000
0001
3300
0000
0000
0000
0000
0000
0000
,
0000
1010
0000
1010
0000
0011
0000
0100
0010
1000
0000
0101
0000
0100
0100
0000
,
0001
0000
1100
0000
1100
0000
0000
0000
0101
0000
0000
0000
0101
0000
0000
0100
,
0100
0000
0000
0110
0000
0220
0000
0000
0000
0000
1331
0000
0000
0000
1010
0000
,
0000
1000
1000
0000
0011
0000
0022
0000
0000
0000
0003
2200
0000
0000
0001
3302
,
0000
1000
0000
1003
1000
2000
0000
0000
0000
0000
0000
0000
0000
3000
0000
0000
,
0000
0000
0000
0000
0030
0000
1000
1000
,
1001
0010
1100
1001
0010
1100
1001
0001
,
1001
0001
1100
1100
0001
0101
1001
0100
,
0011
0001
1100
1100
1001
0010
1001
0110
,
0110
1001
1100
1001
0100
0011
0110
1000
,
0011
1000
0011
1010
1000
0011
0011
1000
,
1001
0010
1100
1001
0010
1010
1010
1000
,
0011
1000
0011
0011
1001
0010
1001
1100
,
1001
0011
0110
1100
0001
0001
1010
0100
,
0012
0000
0000
1010
0000
0000
1010
0100
,
0023
0000
0230
0011
0302
0000
1013
0011
,
2010
0001
0010
0100
0001
0010
0101
0010
3100
0001
0010
0100
1001
0000
1100
0000
,
1001
0000
0200
0011
0320
0000
2030
0000
,
3011
1001
1100
1001
1001
0000
0012
1100
,
1103
0000
0101
0000
1010
0000
1010
0000
0200
0000
0000
0000
0311
1000
0100
0010
,
0101
0010
0100
1000
0001
0100
0110
0001
0010
0100
1000
0000
0112
0000
0000
0000
,
1203
0000
0000
0000
0321
0000
0000
0000
2130
0010
0100
0010
0120
0100
0100
0100
,
3132
1000
1100
1100
0013
0101
0101
1100
,
0021
1000
1100
1001
0031
1000
0011
0011
,
0012
1000
1013
0101
2100
0100
3011
1001
,
1001
1100
0110
0011
1000
0100
0011
0100
,
1001
0010
1100
1001
0010
1100
1001
0001
,
1001
0001
1100
1100
0001
0101
1001
0100
,
0011
0001
1100
1100
1001
0010
1001
0110
,
0110
1001
1100
1001
0100
0011
0110
1000
,
0012
1000
1013
1010
1000
0011
0011
1000
,
1002
0010
1103
1001
0010
1010
1010
0001
,
2011
0100
3011
0011
1001
0010
1001
1100
,
1001
0011
0110
1100
0001
0010
1100
0010
,
2001
0100
3100
1001
0010
1100
1001
0010
,
2100
0001
3101
1100
0001
0101
1001
0001
,
0021
1000
1031
1100
1001
0010
1001
0110
,
0110
1001
1100
1001
1000
0011
0011
1000
,
0020
0000
1030
0020
0000
0030
0000
0000
;
